<?xml version="1.0" standalone="no"?>
<!DOCTYPE svg PUBLIC "-//W3C//DTD SVG 1.1//EN" "http://www.w3.org/Graphics/SVG/1.1/DTD/svg11.dtd" >
<svg xmlns="http://www.w3.org/2000/svg">
<metadata>Generated by IcoMoon</metadata>
<defs>
<font id="asics" horiz-adv-x="1024">
<font-face units-per-em="1024" ascent="960" descent="-64" />
<missing-glyph horiz-adv-x="1024" />
<glyph unicode="&#x20;" horiz-adv-x="512" d="" />
<glyph unicode="&#xe900;" glyph-name="account-1-1" horiz-adv-x="1078" d="M539.012 779.801c53.895 0 94.79-18.261 123.322-48.822 17.44-18.641 26.823-37.409 30.688-51.168l1.649-6.531c4.565-19.022 6.403-38.297 6.597-55.606l1.331-1.205c21.051-19.656 22.824-51.929 0.825-92.953-2.98-5.453-6.721-9.828-11.226-13.442-0.949-0.761-1.902-1.458-2.916-2.093-10.526-30.434-31.701-63.278-59.155-88.136 1.902-1.39 4.818-3.422 8.558-5.831 10.396-6.721 22.7-13.571 36.713-19.909 7.61-3.422 15.468-6.656 23.649-9.636 89.848-32.337 130.49-103.419 137.335-211.774 2.22-33.862-25.929-66.323-60.421-66.323h-474.086c-34.873 0-62.455 32.908-60.426 67.207 6.784 108.614 46.54 175.95 137.4 208.734 9.067 3.234 17.753 6.909 25.869 10.779 12.935 6.214 24.094 12.87 33.288 19.402 5.073 3.552 8.306 6.214 9.828 7.545-28.216 25.17-49.457 58.648-59.158 88.449l-1.712 1.141c-5.073 3.488-9.194 7.799-12.554 13.696-21.938 38.678-19.973 70.634 0.19 91.367l2.219 2.219c0.127 17.5 1.902 37.093 6.595 56.431l1.712 6.531c3.804 13.695 13.189 32.463 30.625 51.105 28.532 30.562 69.429 48.822 123.261 48.822v0zM539.012 380.346c-18.515 0-36.459 4.883-53.135 13.188-1.268-2.916-3.17-5.707-5.706-8.052-10.018-9.259-28.406-22.318-54.973-35.064-9.574-4.565-19.655-8.876-30.245-12.681-70.887-25.551-100.561-75.706-106.204-167.138-0.508-8.117 6.848-16.864 13.125-16.864h474.086c6.338 0 13.695 8.494 13.188 15.915-5.772 91.303-36.589 145.198-106.14 170.307-9.448 3.358-18.454 7.103-27.206 11.032-27.961 12.681-47.869 25.616-58.966 34.746-2.474 2.026-4.436 4.565-5.896 7.292l-9.636-4.376c-13.506-5.325-27.707-8.37-42.291-8.37v0.065zM539.012 732.437c-40.517 0-68.986-12.681-88.705-33.795-11.539-12.428-17.69-24.601-19.655-31.512l-1.268-4.882c-4.438-18.451-5.706-38.297-5.136-54.465v-1.712c0.634-10.271-5.453-19.719-14.963-23.46 0.634 0.254 0-0.064-0.761-0.888-4.438-4.565-5.073-13.315 6.404-33.859l0.888-0.507c7.102-4.312 11.794-8.75 16.232-19.402 12.871-42.609 61.82-100.307 106.966-100.307 45.207 0 94.095 57.636 106.776 99.42 2.28 8.813 7.098 13.886 13.819 18.134l2.538 1.585c7.227 13.759 9.954 23.841 9.636 30.435-0.189 2.79-0.695 3.931-1.52 4.628-0.253 0.317-0.447 0.38 0.571 0.127-10.59 3.043-17.694 13.061-17.058 24.094v0.634l0.065 1.078c0.507 16.168-0.76 36.014-5.201 54.529l-1.267 4.692c-1.902 6.975-8.052 19.212-19.655 31.639-19.655 21.114-48.187 33.795-88.705 33.795v0z" />
<glyph unicode="&#xe901;" glyph-name="arrow-left-1" d="M408.309 694.116l-22.439-22.884c-2.85-2.76-4.452-6.589-4.452-10.507 0-4.007 1.603-7.792 4.452-10.552l176.352-179.912-176.352-179.957c-2.85-2.76-4.452-6.543-4.452-10.552 0-3.963 1.603-7.747 4.452-10.552l22.439-22.881c2.671-2.898 6.411-4.541 10.329-4.541 3.873 0 7.346 1.51 10.329 4.541l209.118 213.391c2.852 2.76 4.454 6.544 4.454 10.552 0 3.962-1.603 7.747-4.454 10.507l-209.118 213.348c-2.672 2.938-6.411 4.585-10.329 4.585s-7.658-1.647-10.329-4.585v0z" />
<glyph unicode="&#xe902;" glyph-name="cart-3-1" d="M430.807 286.141c42.876 0 77.626-34.749 77.626-77.624s-34.75-77.629-77.626-77.629c-42.876 0-77.626 34.755-77.626 77.629s34.75 77.624 77.626 77.624zM786.995 286.141c42.875 0 77.624-34.749 77.624-77.624s-34.749-77.629-77.624-77.629c-42.88 0-77.629 34.755-77.629 77.629s34.749 77.624 77.629 77.624zM430.807 239.898c-17.342 0-31.38-14.039-31.38-31.38s14.039-31.38 31.38-31.38c17.309 0 31.381 14.039 31.381 31.38s-14.072 31.38-31.381 31.38zM786.995 239.898c-17.341 0-31.38-14.039-31.38-31.38s14.039-31.38 31.38-31.38c17.341 0 31.38 14.039 31.38 31.38s-14.039 31.38-31.38 31.38zM252.994 755.2l4.856-16.681 99.427-343.336c2.841-8.786 11.033-14.669 20.381-14.633h443.59c9.743-0.036 18.299 6.605 20.68 16.154l51.43 202.981h-504.139c-12.751 0-23.123 10.339-23.123 23.122 0 12.751 10.372 23.123 23.123 23.123h533.205c12.785 0 23.122-10.372 23.122-23.123 0-4.294-1.188-8.357-3.236-11.825 0.399-2.742 0.23-5.616-0.497-8.457l-55.030-217.122c-7.532-30.126-34.683-51.231-65.669-51.098h-443.292c-29.333-0.169-55.429 18.627-64.743 47.232l-94.802 327.417h-92.755c-12.783 0-23.122 10.339-23.122 23.123s10.339 23.122 23.122 23.122h127.472z" />
<glyph unicode="&#xe903;" glyph-name="search-4" horiz-adv-x="1078" d="M647.933 704.499c103.278-99.087 108.867-256.299 16.729-361.653l140.326-134.737c9.184-8.823 9.184-23.115-0.081-31.9-9.184-8.779-24.113-8.779-33.334 0.081l-140.089 134.537c-109.863-89.902-275.141-85.035-379.017 14.573-109.147 104.675-109.147 274.383 0 379.059 109.226 104.715 286.241 104.715 395.466 0v0.040zM285.842 672.641c-90.823-87.11-90.823-228.354 0-315.384 90.782-87.029 237.935-87.029 328.72 0 90.823 87.030 90.823 228.274 0 315.384-90.785 87.030-237.937 87.030-328.72 0z" />
<glyph unicode="&#xe904;" glyph-name="arrow-left-2" d="M615.69 246.405l22.441 22.886c2.847 2.76 4.449 6.589 4.449 10.506 0 4.009-1.603 7.793-4.449 10.552l-176.352 179.911 176.352 179.957c2.847 2.76 4.449 6.544 4.449 10.551 0 3.962-1.603 7.747-4.449 10.552l-22.441 22.884c-2.673 2.894-6.41 4.541-10.327 4.541-3.876 0-7.347-1.513-10.332-4.541l-209.117-213.393c-2.849-2.76-4.452-6.545-4.452-10.552 0-3.962 1.603-7.747 4.452-10.507l209.117-213.349c2.673-2.939 6.415-4.582 10.332-4.582s7.654 1.644 10.327 4.582v0z" />
<glyph unicode="&#xe905;" glyph-name="hamburger-menu-1" d="M873.677 216.576c13.21 0 23.895-10.716 23.895-23.895 0-13.21-10.685-23.89-23.895-23.89h-689.22c-13.21 0-23.894 10.68-23.894 23.89 0 13.179 10.684 23.895 23.894 23.895h689.22zM873.677 469.265c13.21 0 23.895-10.683 23.895-23.891 0-13.21-10.685-23.895-23.895-23.895h-689.22c-13.21 0-23.894 10.685-23.894 23.895 0 13.208 10.684 23.891 23.894 23.891h689.22zM873.677 721.988c13.21 0 23.895-10.683 23.895-23.893s-10.685-23.894-23.895-23.894h-689.22c-13.21 0-23.894 10.684-23.894 23.894s10.684 23.893 23.894 23.893h689.22z" />
<glyph unicode="&#xe906;" glyph-name="plus-2" d="M512 686.934c18.842 0 34.135-17.818 34.135-39.834v-398.201c0-22.016-15.293-39.834-34.135-39.834s-34.134 17.818-34.134 39.834v398.201c0 22.016 15.292 39.834 34.134 39.834zM312.9 482.134h398.201c22.016 0 39.834-15.292 39.834-34.134s-17.818-34.135-39.834-34.135h-398.201c-22.016 0-39.834 15.293-39.834 34.135s17.818 34.134 39.834 34.134z" />
<glyph unicode="&#xe907;" glyph-name="minus" d="M312.9 482.134h398.201c22.016 0 39.834-15.292 39.834-34.134s-17.818-34.135-39.834-34.135h-398.201c-22.016 0-39.834 15.293-39.834 34.135s17.818 34.134 39.834 34.134z" />
<glyph unicode="&#xe908;" glyph-name="store-locator" d="M512 772.266c122.537 0 221.865-102.332 221.865-228.557 0-104.962-153.359-336.078-205.071-411.035-4.096-5.97-10.445-8.94-16.794-8.94s-12.698 2.97-16.794 8.94c-51.712 74.957-205.073 306.074-205.073 411.035 0 126.225 99.328 228.557 221.866 228.557zM512 650.615c-57.344 0-103.766-47.855-103.766-106.906s46.422-106.907 103.766-106.907c57.344 0 103.767 47.856 103.767 106.907s-46.423 106.906-103.767 106.906z" />
<glyph unicode="&#xe909;" glyph-name="close-cross-1" d="M777.216 747.136c10.496-10.752 10.429-28.16 0-38.848l-237.44-243.2 237.44-243.203c10.429-10.752 10.496-28.155 0-38.907-10.435-10.752-27.459-10.752-37.888 0l-227.328 232.827-227.328-232.827c-10.432-10.752-27.456-10.752-37.888 0-10.496 10.752-10.432 28.155 0 38.907l237.44 243.203-237.44 243.2c-10.432 10.688-10.496 28.16 0 38.848 10.432 10.752 27.456 10.752 37.888 0l227.328-232.832 227.328 232.832c10.429 10.752 27.453 10.752 37.888 0v0z" />
<glyph unicode="&#xe90a;" glyph-name="tick-1-1" d="M793.6 655.417c10.071 9.898 26.281 9.785 36.183-0.342 9.897-10.070 9.784-26.282-0.343-36.182l-419.499-412.445c-9.955-9.784-25.941-9.784-35.84 0l-179.541 176.358c-10.126 9.897-10.24 26.168-0.342 36.234 9.898 10.071 26.169 10.24 36.182 0.287l161.564-158.72 401.636 394.809z" />
<glyph unicode="&#xe90b;" glyph-name="tick-2" horiz-adv-x="1078" d="M870.012 572.792c-1.967 2.356-2.926 5.452-2.926 8.375-28.349 50.638-30.095 112.573-58.443 163.254-79.947-45.448-134.554-126.399-186.675-200.153-31.448-44.488-59.624-90.067-85.488-138.047-26.082-48.15-51.379-96.827-80.515-143.274-4.231-6.543-15.135-9.685-19.758-1.31-13.783 25.778-29.31 50.812-47.105 74.148-15.353 19.973-32.799 37.856-48.501 57.441-24.381 30.487-50.42 66.993-84.179 88.103-12.213-40.737-26.606-81.123-32.973-123.431 47.192-30.882 83.219-75.501 117.894-119.598 40.65-51.642 82.609-100.929 128.231-148.119 29.528 39.036 49.853 84.442 74.366 126.793 28.958 49.853 62.674 95.868 98.525 140.924 35.856 45.051 77.204 84.831 118.854 124.041 19.542 18.45 42.528 33.585 63.418 50.464 15.705 12.823 31.054 26.039 45.449 40.214 0-0.218 0 0-0.221 0.174h0.049z" />
<glyph unicode="&#xe90c;" glyph-name="bin-delete-3-1" d="M624.445 767.247c12.355 0 22.405-10.059 22.405-22.468l-0.067-65.838h94.976l3.261-0.241c0.963 0.12 1.92 0.241 2.944 0.241h75.269c12.416 0 22.4-13.492 22.4-30.117s-9.984-30.118-22.4-30.118h-59.075v-495.494c0-12.411-10.051-22.528-22.4-22.528h-440.512c-12.416 0-22.4 10.117-22.4 22.528l-0.064 495.494h-51.584c-12.352 0-22.4 13.493-22.4 30.118s10.048 30.117 22.4 30.117h68.48l2.56-0.241c0.96 0.181 1.92 0.241 3.008 0.241h111.488l0.064 65.838c0 12.408 10.048 22.468 22.4 22.468h189.245zM719.36 633.886h-395.712v-488.145h395.712v488.145zM602.051 722.251h-144.451l-0.064-43.31h144.448v43.31h0.067z" />
<glyph unicode="&#xe90d;" glyph-name="padlock-1-1" d="M511.59 841.011c106.035 1.741 193.792-82.074 196.864-188.774l-0.051-59.392 40.653-0.051c32.051 0 58.010-25.958 58.010-58.010v-353.536c0-32.051-25.958-58.061-58.010-58.061h-474.112c-32.051 0-58.010 26.010-58.010 58.061v353.536c0 32.051 25.958 58.010 58.010 58.010h40.55l0.051 59.546c2.765 106.24 90.624 190.464 196.096 188.672h-0.051zM749.056 545.024h-474.112c-5.632 0-10.24-4.608-10.24-10.24v-353.536c0-5.632 4.608-10.24 10.24-10.24h474.112c5.632 0 10.24 4.608 10.24 10.24v353.536c0 5.632-4.608 10.24-10.24 10.24v0zM545.638 474.778c28.826-13.414 47.462-42.138 47.974-73.933v-0.41c-0.102-24.73-11.52-48.128-30.72-63.13-1.024-0.819-1.536-1.997-1.536-3.072v-55.245c0-24.934-20.224-45.107-45.158-45.107h-8.858c-24.934 0-45.158 20.173-45.158 45.107v55.245c0 1.178-0.512 2.355-0.922 2.714-35.789 28.621-41.779 80.691-14.234 115.558 3.328 4.915 7.578 9.165 11.162 11.52 24.678 19.968 58.624 24.218 87.45 10.752v0zM482.662 431.206c-0.717-0.512-1.331-1.126-2.662-2.918-14.387-18.278-11.366-44.8 7.373-59.802 9.984-8.55 15.77-21.094 15.77-34.304v-55.142c0-2.304 1.894-4.147 4.198-4.147h8.858c2.304 0 4.147 1.843 4.147 4.147v55.296c0.102 13.517 6.246 26.266 16.998 34.97 9.574 7.526 15.206 18.944 15.36 31.078-0.41 16.026-9.83 30.515-24.371 37.274-14.592 6.81-31.846 4.71-45.722-6.451h0.051zM511.59 793.242c-79.974 1.382-146.176-62.106-148.275-141.466v-58.88h297.318v58.624c-2.253 79.872-68.352 143.053-148.992 141.722h-0.051z" />
<glyph unicode="&#xe90e;" glyph-name="arrow-left-1-1" d="M411.21 689.509c9.67-10.314 9.147-26.515-1.167-36.185l-191.706-179.724h617.928c14.141 0 25.6-11.461 25.6-25.6 0-14.137-11.459-25.601-25.6-25.601h-617.928l191.706-179.722c10.314-9.672 10.837-25.871 1.167-36.188-9.67-10.312-25.87-10.834-36.185-1.167l-238.933 224c-5.162 4.844-8.091 11.602-8.091 18.678s2.929 13.837 8.091 18.676l238.933 224c10.315 9.67 26.515 9.147 36.185-1.167z" />
<glyph unicode="&#xe90f;" glyph-name="email-1" d="M846.669 635.437l-0.891 0.045c12.6 0 22.84-10.24 22.84-22.839v-414.411c0-12.595-10.24-22.835-22.881-22.835h-627.803c-12.644 0-22.884 10.24-22.884 22.835v414.411c0 12.288 9.75 22.305 21.904 22.839l629.714-0.045zM822.851 567.319l-277.238-210.275c-8.146-6.19-19.456-6.19-27.602 0l-277.371 210.231 0.045-346.203h582.166v346.247zM776.904 589.802h-490.273l245.183-185.834 245.089 185.834z" />
<glyph unicode="&#xe910;" glyph-name="phone-1" d="M810.035 247.757c-0.492 2.56-2.099 4.762-4.879 6.349l-123.904 73.216c-1.608 0.87-3.415 1.28-6.825 1.126-3.999 0.051-7.854-1.434-9.851-3.226l-38.328-38.912c-3.999-3.482-8.776-5.99-13.947-7.322l-5.996-0.768h-4.291l-4.536 0.461-10.092 2.048c-9.702 2.765-19.016 6.656-27.356 11.418-14.239 7.68-27.894 16.486-40.914 26.317-19.502 14.797-37.788 31.181-53.977 48.282-17.359 16.845-33.255 35.072-47.494 54.323-9.752 12.954-18.481 26.624-25.941 40.704-6.437 11.776-11.215 24.32-14.385 38.912-0.634 4.096-0.634 8.192 0.487 14.746 1.366 5.069 3.852 9.728 8.484 15.053l31.793 31.744c2.243 2.304 3.803 5.222 4.632 9.216 0.439 1.894 0.146 3.84-0.975 5.888l-68.9 129.536c-1.366 2.15-3.121 4.045-5.364 5.683l-0.244 0.051c-1.317 0-2.536-0.512-3.999-2.048l-87.040-86.528c-2.34-2.202-4.242-4.864-5.949-8.55-1.561-3.072-2.682-6.4-3.316-9.779v-11.264c-0.146-9.062 0.585-18.176 2.34-27.443 2.682-15.309 6.534-30.362 11.508-45.107 6.876-20.48 15.458-40.346 25.6-59.29 13.654-25.19 29.111-49.357 46.324-72.294 21.991-29.491 46.324-57.139 73.24-83.251 31.403-32.512 66.121-61.645 103.619-86.886 27.26-18.432 56.126-34.304 86.503-47.565 30.966-13.926 64.317-21.709 97.377-22.886h10.143c3.415 0.666 6.825 1.843 10.629 3.686 2.929 1.331 5.509 3.226 8.34 6.246l86.748 86.016c0.338 0.358 0.681 0.768 0.927 1.178l-0.195 0.922zM858.307 257.69c2.586-17.357-3.512-34.867-15.846-46.387l-85.576-84.838c-6.441-7.014-14.239-12.595-22.139-16.179-8.049-3.994-16.63-6.758-25.503-8.090l-3.61-0.256h-13.020c-40.131 1.434-79.58 10.598-115.907 26.982-32.814 14.336-64.22 31.59-93.866 51.61-40.229 27.136-77.532 58.368-110.69 92.723-28.282 27.341-54.223 56.934-77.726 88.422-18.53 24.781-35.304 50.893-50.127 78.234-11.459 21.402-21.065 43.725-28.769 66.714-5.803 16.998-10.241 34.458-13.263 51.866-2.292 12.134-3.316 24.474-3.121 36.352v12.902l0.292 3.584c1.316 8.909 4.047 17.562 7.705 24.781 3.95 8.704 9.557 16.435 15.945 22.374l85.919 85.453c9.85 10.496 23.601 16.435 37.888 16.538 10.727 0.102 21.114-3.379 29.404-9.728 6.68-5.018 12.434-11.264 17.798-19.866l69.632-130.714c6.729-12.032 8.68-26.112 5.754-38.707-2.438-12.493-8.582-24.064-17.554-33.024l-25.844-25.702c1.95-6.246 4.486-12.288 7.704-18.227 6.437-12.134 13.849-23.706 22.236-34.867 12.775-17.357 27.014-33.587 43.154-49.306 15.067-15.923 31.405-30.566 48.813-43.776 11.064-8.294 22.671-15.821 35.302-22.63 5.412-3.072 11.213-5.53 15.263-6.758l0.829-0.154 32.082 32.614c11.899 10.906 27.505 16.845 42.081 16.589 10.388 0.512 20.726-1.741 30.966-7.168l124.442-73.472c10.532-5.837 18.821-14.848 23.793-25.549 2.831-3.226 4.879-7.322 5.56-12.288v-0.051z" />
<glyph unicode="&#xe911;" glyph-name="Group-3-1" d="M512 192c-141.385 0-256 114.616-256 256s114.615 256 256 256c141.384 0 256-114.615 256-256s-114.616-256-256-256zM512 140.8c169.661 0 307.2 137.539 307.2 307.2s-137.539 307.2-307.2 307.2c-169.662 0-307.2-137.538-307.2-307.2s137.538-307.2 307.2-307.2zM445.125 534.95h96.776v-161.349h61.773v-28.001h-158.548v28.001h64.4v133.174h-64.4v28.175zM505.325 584.65c0 5.366 1.575 9.858 4.725 13.475 3.266 3.734 8.166 5.6 14.699 5.6 6.415 0 11.259-1.866 14.525-5.6 3.267-3.617 4.9-8.109 4.9-13.475 0-5.25-1.633-9.625-4.9-13.125s-8.11-5.25-14.525-5.25c-6.533 0-11.433 1.75-14.699 5.25-3.15 3.5-4.725 7.875-4.725 13.125z" />
<glyph unicode="&#xe912;" glyph-name="help-stroked-1" d="M501.759 857.6c220.57 0 399.361-181.77 399.361-406.016s-178.79-406.016-399.361-406.016c-220.57 0-399.359 181.77-399.359 406.016s178.79 406.016 399.359 406.016zM501.759 809.034c-194.15 0-351.591-160.064-351.591-357.45s157.441-357.453 351.591-357.453c194.151 0 351.591 160.067 351.591 357.453s-157.44 357.45-351.591 357.45zM529.459 344.719v-66.632h-65.538v66.632h65.538zM495.153 629.398c37.634 0 67.586-9.994 89.858-29.983 22.221-20.040 33.331-43.308 33.331-69.907 0-14.679-4.096-28.63-12.237-41.747-8.192-13.117-25.6-30.971-52.378-53.616-13.824-11.658-22.426-21.079-25.805-28.211-3.328-7.132-4.864-19.835-4.506-38.211h-59.546l-0.053 4.844-0.153 11.085c0 19.574 3.175 35.712 9.575 48.41 6.349 12.6 19.098 26.862 38.247 42.686 19.149 15.772 30.567 26.13 34.305 31.076 5.734 7.756 8.653 16.292 8.653 25.61 0 12.961-5.12 24.049-15.309 33.314s-23.91 13.898-41.164 13.898c-16.64 0-30.568-4.841-41.781-14.471-11.213-9.682-18.943-24.361-23.091-44.141l-60.212 7.6 0.975 9.266c3.482 24.309 15.051 45.286 34.61 62.828 22.016 19.781 50.892 29.67 86.681 29.67v0z" />
<glyph unicode="&#xe913;" glyph-name="store-locator-empty" d="M790.513 503.091l0.005-0.532c-0.067-44.603-12.754-88.279-36.956-126.54l-157.553-234.158c-5.074-7.542-11.566-14.029-19.108-19.108-32.261-21.704-76.005-13.148-97.71 19.108l-157.92 234.721c-23.835 37.699-36.519 81.374-36.584 126.51 2.824 133.666 110.678 240.48 242.284 243.235l10.168 0.006c137.098 2.699 250.476-106.147 253.373-243.24zM537.139 699.407c-111.209 2.189-203.18-86.102-205.524-196.775 0.056-35.75 10.223-70.755 28.961-100.41l157.553-234.158c7.235-10.752 21.816-13.604 32.573-6.369 2.514 1.69 4.675 3.855 6.369 6.369l157.189 233.595c19.057 30.147 29.22 65.050 29.322 100.707-2.488 111.079-94.403 199.228-206.444 197.041zM537.6 620.763c58.097 0 105.651-45.261 105.651-101.689s-47.555-101.686-105.651-101.686c-58.098 0-105.652 45.259-105.652 101.686s47.555 101.689 105.652 101.689zM537.6 573.83c-32.682 0-58.719-24.782-58.719-54.756s26.037-54.755 58.719-54.755c32.681 0 58.721 24.781 58.721 54.755s-26.040 54.756-58.721 54.756z" />
<glyph unicode="&#xe914;" glyph-name="Group-5" d="M512 834.625c213.53 0 386.627-173.098 386.627-386.625 0-213.53-173.097-386.627-386.627-386.627-213.527 0-386.625 173.097-386.625 386.627 0 213.527 173.098 386.625 386.625 386.625zM512 783.425c-185.25 0-335.425-150.175-335.425-335.425 0-185.252 150.175-335.427 335.425-335.427 185.252 0 335.427 150.175 335.427 335.427 0 185.25-150.175 335.425-335.427 335.425zM512 743.406c14.141 0 25.6-11.462 25.6-25.6v-259.203l140.764-140.764c9.999-9.994 9.999-26.204 0-36.204s-26.209-9.999-36.204 0l-148.262 148.26c-4.801 4.803-7.498 11.315-7.498 18.104v269.806c0 14.138 11.462 25.6 25.599 25.6z" />
<glyph unicode="&#xe915;" glyph-name="Group-51" d="M537.6 448c0-14.138-11.462-25.6-25.6-25.6s-25.6 11.462-25.6 25.6c0 14.138 11.462 25.6 25.6 25.6s25.6-11.462 25.6-25.6zM400 448c0-14.138-11.462-25.6-25.6-25.6s-25.6 11.462-25.6 25.6c0 14.138 11.462 25.6 25.6 25.6s25.6-11.462 25.6-25.6zM665.6 448c0-14.138-11.462-25.6-25.6-25.6s-25.6 11.462-25.6 25.6c0 14.138 11.462 25.6 25.6 25.6s25.6-11.462 25.6-25.6zM512 835.2c-214.4 0-387.2-172.8-387.2-387.2 0-86.4 28.8-166.4 76.8-230.4 0 0-188.8-108.8-188.8-108.8-6.4-3.2-12.8-12.8-12.8-22.4 0-12.8 12.8-25.6 25.6-25.6 0 0 0 0 0 0s0 0 0 0h486.4c214.4 0 387.2 172.8 387.2 387.2s-172.8 387.2-387.2 387.2zM512 112h-390.4l115.2 67.2 44.8 25.6c-12.8 12.8-25.6 25.6-35.2 38.4-44.8 57.6-70.4 128-70.4 204.8 0 185.6 150.4 336 336 336s336-150.4 336-336-150.4-336-336-336z" />
</font>
</defs>
</svg>
